Filecrypt zeigt vereinzelt Files als "n/a". Die Downloads sind trotzdem komplett.

DNS SERVER AENDERNum der staatlichen Zensur zu umgehen. Sollten wir von eurem Provider geseprrt werden, nutzt den TOR BROWSER oder ändert euren DNS SERVER.

Filmwünsche können bei uns im Forum abgegeben werden

Wir Speichern Nicht




 
 
 
Top Releases
Mission.Impossible.Fallout.2...
Mission.Impossible.Fallout.2...
Mission.Impossible.Fallout.2...
Feinde.Hostiles.2017.DUAL.CO...
The.Miracle.Season.Ihr.groes...
The.Miracle.Season.Ihr.groes...
The.Miracle.Season.Ihr.groes...
Le.Jeu.Nichts.zu.verbergen.2...
Le.Jeu.Nichts.zu.verbergen.2...
Cam.2018.German.DL.1080p.WEB...

Cinedubs
The.Happytime.Murders.Kein.S...
The.Happytime.Murders.Kein.S...
Peppermint.Angel.of.Vengeanc...
Peppermint.Angel.of.Vengeanc...
The.Nun.German.AC3D.DL.1080p...
Christopher.Robin.German.DL....
Christopher.Robin.German.DL....
A.Star.Is.Born.German.DL.AC3...
A.Star.Is.Born.German.DL.AC3...
Mission.Impossible.Fallout.G...

Neuerscheinungen 2017-18
Cliffhanger.Nur.die.Starken....
Cliffhanger.Nur.die.Starken....
Devils.Gate.Pforte.zur.Hoell...
Devils.Gate.Pforte.zur.Hoell...
Beautiful.People.2014.German...
Immortal.Wars.Nur.der.Staerk...
Beautiful.People.2014.DUAL.C...
Devils.Gate.Pforte.zur.Hoell...
Night.Of.The.Demons.1988.DUA...
Africa.Addio.1966.DUAL.COMPL...

XXX
Nerd.Pervert.Vol.30.XXX.720p...
Nerd.Pervert.Vol.30.XXX.1080...
Private.18.10.31.Miss.Meliss...
NHLPCentral.18.05.24.Kate.An...
PornMegaLoad.18.10.28.Korina...
PublicDisgrace.18.10.29.Mz.B...
PornstarPlatinum.18.10.30.Jo...
PlayboyPlus.18.10.31.Alice.A...
PlumperPass.18.10.31.Naia.Be...
NHLPCentral.18.06.11.Karina....
Private.18.10.29.Latina.Andr...
PornFidelity.E766.Sophia.Lux...
PublicBang.18.10.28.Ginebra....
PornMegaLoad.18.10.29.Savana...
NHLPCentral.18.06.07.Beth.Be...
PureTaboo.18.10.30.Kendra.Sp...
PublicAgent.18.10.30.Akasha....
PornstarsLikeItBig.18.10.31....
PlumperPass.18.10.29.Veruca....
PornstarPlatinum.18.10.31.Al...

3D
Die.Unglaublichen.2.2018.3D....
Skyscraper.3D.2018.MULTi.COM...
Ant-Man.And.The.Wasp.3D.2018...
Ant.Man.and.the.Wasp.3D.2018...
Die.Unglaublichen.2.3D.2018....
Die.Unglaublichen.2.2018.3D....
Die.Unglaublichen.2.2018.3D....
Sharknado.6.The.Last.One.3D....
Deep.Kleine.Helden.der.Tiefs...
Deep.3D.2017.MULTI.COMPLETE....
Detective.Dee.und.die.Legend...
Detective.Dee.und.die.Legend...
Skyscraper.3D.German.DL.AC3....
Ant-Man.and.the.Wasp.2018.3D...
Jurassic.World.Das.gefallene...

Old_Stuff
Dunkirk.1958.COMPLETE.BLURAY...
Das.Wunder.von.Manhattan.199...
The.Amazing.Spiderman.2.Rise...
Rise.of.the.Predator.2014.Ge...
Detective.Dee.und.das.Geheim...
Detective.Dee.Und.Der.Fluch....
Ghost.Rider.Spirit.of.Vengea...
Species.IV.Das.Erwachen.2007...
Species.IV.Das.Erwachen.2007...
Hotel.Transsilvanien.2012.Ge...
The.Dead.2010.German.DL.1080...
The.Dead.2.India.2013.German...
Britney.Spears.Live.The.Femm...
Buffy.The.Vampire.Slayer.199...
IMAX.Ride.Around.The.World.2...

Filme
Dunkirk.1958.German.DTS-HD.D...
Skin.Creepers.2018.German.10...
Outlander.S04.German.DD51.DL...
Outlander.S04.German.DD51.DL...
Die.Simpsons.S29.GERMAN.DUBB...
Wrecked.-.Voll.abgestuerzt.S...
The.Bite.UNCUT.1989.German.A...
Wrecked.S03.GERMAN.DUBBED.72...
NCIS.S15.GERMAN.DUBBED.DL.72...
NCIS.Los.Angeles.S09.COMPLET...
Cemetery.Junction.2010.Germa...
Frankenstein.Das.Experiment....
Fremde.Wesen.1997.German.DL....
Walt.Disneys.Superhirn.in.Te...
Ghostbusters.1984.DTS-HD.DL....
Die.Verachtung.1963.BluRay.1...
Drei.Schlappschwaenze.auf.gr...
Vertigo.Aus.dem.Reich.der.To...
Arrow.S06.GERMAN.DL.1080p.HD...
Arrow.S06.GERMAN.DL.720p.HDT...
Black.Lightning.S02.GERMAN.D...
Black.Lightning.S02.GERMAN.D...
Selfless.2015.German.DL.1080...
Full.Speed.2016.German.1080p...

 
 
Mission.Impossible.Fallout.2018.German.DL.720p.BluRay.x264-COiNCiDENCE

Jahr: 2018
Genre: Action, Thriller
Sprache: Deutsch AC3 | Englisch AC3
Laufzeit: 2h 27mn
Bitrate: 3 209 Kbps
Format: MKV
Größe: 3.30 GiB
Release:

Beschreibung:

Die Geheimorganisation Impossible Mission Force (IMF) ist nach ihrer vorübergehenden Schließung wieder aktiv. IMF-Chef Alan Hunley (Alec Baldwin) schickt seine Agenten Ethan Hunt (Tom Cruise), Benji Dunn (Simon Pegg) und Luther Stickell (Ving Rhames) auf eine heikle Mission, um hochgefährliches, waffenfähiges Plutonium sicherzustellen, das auf dem Schwarzmarkt angeboten wird. Eine aus Weltuntergangsfanatikern bestehende Terroristengruppe plant, es sich unter den Nagel zu reißen und daraus tragbare Atombomben zu bauen. Ihr Ziel: die Welt in Chaos zu stürzen. Hunts Mission schlägt jedoch fatal fehl, weil er das Leben seiner Partner über den Erfolg seines Auftrags stellt. Das bringt das IMF unter Druck, sodass die CIA-Chefin Erica Sloane (Angela Bassett) die Geduld verliert und ihren berüchtigten Agenten August Walker (Henry Cavill) zur Verstärkung schickt…



Complete name                            : coincidence-mifallout-720p.mkv
Format                                   : Matroska
Format version                           : Version 4 / Version 2
File size                                : 3.30 GiB
Duration                                 : 2h 27mn
Overall bit rate                         : 3 209 Kbps
Encoded date                             : UTC 2018-11-20 16:14:12
Writing application                      : mkvmerge v8.3.0 ('Over the Horizon') 64bit
Writing library                          : libebml v1.3.1 + libmatroska v1.4.2
DURATION                                 : 00:32:10.262000000
NUMBER_OF_FRAMES                         : 20
NUMBER_OF_BYTES                          : 445
_STATISTICS_WRITING_APP                  : mkvmerge v8.3.0 ('Over the Horizon') 64bit
_STATISTICS_WRITING_DATE_UTC             : 2018-11-20 16:14:12
_STATISTICS_TAGS                         : BPS DURATION NUMBER_OF_FRAMES NUMBER_OF_BYTES

Video
ID                                       : 1
Format                                   : AVC
Format/Info                              : Advanced Video Codec
Format profile                           : High@L4.1
Format settings, CABAC                   : Yes
Format settings, ReFrames                : 5 frames
Codec ID                                 : V_MPEG4/ISO/AVC
Duration                                 : 2h 27mn
Bit rate                                 : 1 866 Kbps
Width                                    : 1 280 pixels
Height                                   : 672 pixels
Display aspect ratio                     : 1.905
Frame rate mode                          : Constant
Frame rate                               : 23.976 fps
Color space                              : YUV
Chroma subsampling                       : 4:2:0
Bit depth                                : 8 bits
Scan type                                : Progressive
Bits/(Pixel*Frame)                       : 0.090
Stream size                              : 1.92 GiB (58%)
Writing library                          : x264 core 157 r2935 545de2f
Encoding settings                        : cabac=1 / ref=5 / deblock=1:-1:-1 / analyse=0x3:0x113 / me=umh / subme=10 / psy=1 / psy_rd=1.00:0.00 / mixed_ref=1 / me_range=16 / chroma_me=1 / trellis=2 / 8x8dct=1 / cqm=0 / deadzone=21,11 / fast_pskip=0 / chroma_qp_offset=-2 / threads=21 / lookahead_threads=1 / sliced_threads=0 / nr=0 / decimate=1 / interlaced=0 / bluray_compat=0 / constrained_intra=0 / bframes=5 / b_pyramid=2 / b_adapt=1 / b_bias=0 / direct=3 / weightb=1 / open_gop=0 / weightp=1 / keyint=250 / keyint_min=23 / scenecut=40 / intra_refresh=0 / rc_lookahead=40 / rc=crf / mbtree=1 / crf=20.0 / qcomp=0.60 / qpmin=16 / qpmax=69 / qpstep=4 / ip_ratio=1.40 / aq=1:1.00
Language                                 : English
Default                                  : Yes
Forced                                   : No
DURATION                                 : 02:27:24.920000000
NUMBER_OF_FRAMES                         : 212066
NUMBER_OF_BYTES                          : 2130921510
_STATISTICS_WRITING_APP                  : mkvmerge v8.3.0 ('Over the Horizon') 64bit
_STATISTICS_WRITING_DATE_UTC             : 2018-11-20 16:14:12
_STATISTICS_TAGS                         : BPS DURATION NUMBER_OF_FRAMES NUMBER_OF_BYTES

Audio #1
ID                                       : 2
Format                                   : AC-3
Format/Info                              : Audio Coding 3
Mode extension                           : CM (complete main)
Format settings, Endianness              : Big
Codec ID                                 : A_AC3
Duration                                 : 2h 27mn
Bit rate mode                            : Constant
Bit rate                                 : 640 Kbps
Channel(s)                               : 6 channels
Channel positions                        : Front: L C R, Side: L R, LFE
Sampling rate                            : 48.0 KHz
Bit depth                                : 16 bits
Compression mode                         : Lossy
Stream size                              : 675 MiB (20%)
Language                                 : German
Default                                  : Yes
Forced                                   : No

Audio #2
ID                                       : 3
Format                                   : AC-3
Format/Info                              : Audio Coding 3
Mode extension                           : CM (complete main)
Format settings, Endianness              : Big
Codec ID                                 : A_AC3
Duration                                 : 2h 27mn
Bit rate mode                            : Constant
Bit rate                                 : 640 Kbps
Channel(s)                               : 6 channels
Channel positions                        : Front: L C R, Side: L R, LFE
Sampling rate                            : 48.0 KHz
Bit depth                                : 16 bits
Compression mode                         : Lossy
Stream size                              : 675 MiB (20%)
Language                                 : English
Default                                  : No
Forced                                   : No

Text #1
ID                                       : 4
Format                                   : UTF-8
Codec ID                                 : S_TEXT/UTF8
Codec ID/Info                            : UTF-8 Plain Text
Title                                    : German-Forced
Language                                 : German
Default                                  : Yes
Forced                                   : Yes

Text #2
ID                                       : 5
Format                                   : UTF-8
Codec ID                                 : S_TEXT/UTF8
Codec ID/Info                            : UTF-8 Plain Text
Title                                    : English-Forced
Language                                 : English
Default                                  : No
Forced                                   : No


Download:
Share Online Share OnlineShare OnlineShare Online
 

Kommentare