DNS SERVER AENDERNum der staatlichen Zensur zu umgehen. Sollten wir von eurem Provider geseprrt werden, nutzt den TOR BROWSER oder ändert euren DNS SERVER.

Filmwünsche können bei uns im Forum abgegeben werden

Wir Speichern Nicht




 
 
 
Top Releases
Letztendlich.sind.wir.dem.Un...
Letztendlich.sind.wir.dem.Un...
Selbstbestimmung.Politik.Abt...
Selbstbestimmung.Politik.Abt...
Letztendlich.sind.wir.dem.Un...
Wolfsnaechte.2018.German.DL....
Wolfsnaechte.2018.German.DL....
Der.Nebelmann.2017.GERMAN.DL...
Der.Nebelmann.2017.GERMAN.72...
Der.Nebelmann.2017.GERMAN.10...

Cinedubs
Skyscraper.German.DL.AC3.Dub...
Skyscraper.German.DL.AC3.Dub...
Hotel.Artemis.2018.GERMAN.DL...
Hotel.Artemis.2018.GERMAN.DL...
The.First.Purge.2018.German....
The.First.Purge.2018.German....
The.First.Purge.2018.German....
Hotel.Transsilvanien.3.Ein.M...
Hotel.Transsilvanien.3.Ein.M...
Hotel.Transsilvanien.3.Ein.M...

Neuerscheinungen 2017-18
Red.Army.Hooligans.2018.MULT...
Im.Zeichen.des.Zorro.The.Mar...
The.Mark.of.Zorro.1940.COLOR...
Rock.N.Roll.High.School.1979...
Ein.Vogel.auf.dem.Drahtseil....
Johnny.Guitar.1954.MULTi.COM...
X-Men.Der.letzte.Widerstand....
Mom.and.Dad.2017.GERMAN.DL.1...
Housesitter.1992.MULTi.COMPL...
X-Men.2.X2.2003.COMPLETE.UHD...

XXX
DaneJones.18.09.18.Baby.Nico...
EvilAngel.Anal.Darlings.2.XX...
DeepthroatFrenzy.18.09.19.Lu...
DarkX.18.09.20.Jane.Wilde.Ho...
CzechCasting.18.09.19.Nikola...
DevilsFilm.18.09.18.Sasha.He...
DigitalPlayground.18.09.17.C...
Do.Me.Dirty.Daddy.XXX.720p.W...
EroticaX.18.09.19.Alexis.Faw...
EvilAngel.Misha.In.Exile.XXX...
DeviceBondage.18.09.20.Rocky...
ExploitedCollegeGirls.18.09....
EvilAngel.POV.Sluts.Anal.Edi...
EuroTeenErotica.18.09.17.Nik...
Cum4K.18.09.18.Kenzie.Reeves...
Cucked.18.09.17.Natalia.Star...
CzechBitch.E59.Mature.Anal.W...
DorcelClub.18.09.17.Lilu.Moo...
EvilAngel.Misha.In.Exile.XXX...
DoeProjects.18.09.17.Jarushk...

3D
Sharknado.6.The.Last.One.3D....
Solo.A.Star.Wars.Story.3D.20...
Solo.A.Star.Wars.Story.3D.20...
Die.Biene.Maja.2.Die.Honigsp...
Avengers.Infinity.War.3D.201...
Avengers.Infinity.War.3D.201...
Rampage.Big.Meets.Bigger.3D....
Rampage.Big.Meets.Bigger.3D....
Rampage.Big.Meets.Bigger.3D....
Winter.Games.3D.2013.DUAL.CO...
Tomb.Raider.3D.2018.German.7...
Rampage.Big.Meets.Bigger.3D....
Rampage.Big.Meets.Bigger.3D....
Tomb.Raider.3D.2018.MULTi.CO...
Pacific.Rim.Uprising.3D.2018...

Old_Stuff
Buffy.The.Vampire.Slayer.199...
IMAX.Ride.Around.The.World.2...
Schimanski.-.Duisburg.Ruhror...
Akte.X.S02.German.DTS.DL.108...
How.I.Met.Your.Mother.S02.Ge...
Akte.X.S01.German.DTS.DL.108...
Den.Himmel.gibts.echt.DL.108...
Vikings.S02.German.DL.1080p....
Be.Kind.Rewind.Abgedreht.200...
Be.Kind.Rewind.Abgedreht.200...
Dracula.The.Dark.Lord.2012.G...
21.2008.German.DL.1080p.BluR...
Achtung.fertig.WK.Swissgerma...
The.Ouija.Exorcism.2015.MULT...
Meine.liebe.Rabenmutter.germ...

Filme
Gladiator.2000.Theatrical.cu...
Bestie.Mensch.1938.German.AC...
Testament.of.Youth.2014.Germ...
American.Psycho.2000.UNRATED...
Hickok.2017.German.DL.DTSD.2...
The.Purge.S01.German.DD+51.D...
The.Purge.S01.German.DD+51.D...
Octalus.Deep.Rising.1998.OM....
The.Good.Cop.S01.COMPLETE.Ge...
The.Good.Cop.S01.COMPLETE.Ge...
Terror.in.der.Oper.1987.Germ...
The.Unborn.UNRATED.German.DL...
National.Lampoons.Loaded.Wea...
Ratter.Er.weiss.alles.ueber....
The.Punisher.2004.German.Dub...
Thrill.to.Kill.2013.German.D...
Die.Lidl-Story.GERMAN.DOKU.7...
Terra.X.Extreme.der.Tiefsee....
Elvis.und.das.Maedchen.aus.W...
Confusion.-.Sommer.der.Ausge...
The.Flash.2014.S04.GERMAN.10...
The.Last.Man.On.Earth.S04.Ge...
The.Last.Man.On.Earth.S04.Ge...
The.Punisher.2004.German.Dub...

 
 
Letztendlich.sind.wir.dem.Universum.egal.German.DL.720p.BluRay.x264-EmpireHD

Jahr: 2018
Genre: Drama, Fantasy
Sprache: Deutsch DTS | Englisch DTS
Laufzeit: 1h 37mn
Bitrate: 4 324 Kbps
Format: MKV
Größe: 2.96 GiB
Release:

Beschreibung:

Rhiannon (Angourie Rice) hat bislang ein ganz normales Leben geführt und sich mit den üblichen Problemen einer 16-Jährigen herumgeschlagen, wie Unsicherheit, Liebesproblemen und einem chaotischen Gefühlsleben. Doch dann verliebt sie sich ungewöhnlich – in eine Seele namens A, die jeden Tag in den Körper eines anderen 16-jährigen Mädchens oder Jungens schlüpft. Rhiannon verliebt sich, als die Seele gerade im Körper ihres Freundes Justin (Justice Smith) zu Gast ist und es ist für die Teenagerin äußerst schwer, A an den folgenden Tagen wiederzufinden. Immerhin: Die beiden spüren eine geheimnisvolle Verbindung zueinander und setzen alles daran, sich nicht aus den Augen zu verlieren. Aber je stärker die Zuneigung zwischen Rhiannon und A wird, desto mehr spürt die junge Frau, dass ihr eine unfassbar schwierige Entscheidung bevorsteht…



Complete name                            : empire-lsuniegal.720p.mkv
Format                                   : Matroska
Format version                           : Version 4 / Version 2
File size                                : 2.96 GiB
Duration                                 : 1h 37mn
Overall bit rate                         : 4 324 Kbps
Movie name                               : Letztendlich.sind.wir.dem.Universum.egal.German.DL.720p.BluRay.x264-EmpireHD
Encoded date                             : UTC 2018-09-28 12:15:25
Writing application                      : mkvmerge v24.0.0 ('Beyond The Pale') 64-bit
Writing library                          : libebml v1.3.6 + libmatroska v1.4.9
DURATION                                 : 01:33:21.221000000
NUMBER_OF_FRAMES                         : 30
NUMBER_OF_BYTES                          : 1036
_STATISTICS_WRITING_APP                  : mkvmerge v24.0.0 ('Beyond The Pale') 64-bit
_STATISTICS_WRITING_DATE_UTC             : 2018-09-28 12:15:25
_STATISTICS_TAGS                         : BPS DURATION NUMBER_OF_FRAMES NUMBER_OF_BYTES

Video
ID                                       : 1
Format                                   : AVC
Format/Info                              : Advanced Video Codec
Format profile                           : High@L4.1
Format settings, CABAC                   : Yes
Format settings, ReFrames                : 5 frames
Codec ID                                 : V_MPEG4/ISO/AVC
Duration                                 : 1h 37mn
Bit rate                                 : 1 220 Kbps
Width                                    : 1 280 pixels
Height                                   : 536 pixels
Display aspect ratio                     : 2.40:1
Frame rate mode                          : Constant
Frame rate                               : 23.976 fps
Color space                              : YUV
Chroma subsampling                       : 4:2:0
Bit depth                                : 8 bits
Scan type                                : Progressive
Bits/(Pixel*Frame)                       : 0.074
Stream size                              : 855 MiB (28%)
Writing library                          : x264 core 155 r2901 7d0ff22
Encoding settings                        : cabac=1 / ref=5 / deblock=1:-2:-2 / analyse=0x3:0x133 / me=umh / subme=10 / psy=1 / psy_rd=1.00:0.15 / mixed_ref=1 / me_range=16 / chroma_me=1 / trellis=2 / 8x8dct=1 / cqm=0 / deadzone=21,11 / fast_pskip=0 / chroma_qp_offset=-3 / threads=17 / lookahead_threads=1 / sliced_threads=0 / nr=0 / decimate=1 / interlaced=0 / bluray_compat=0 / constrained_intra=0 / bframes=3 / b_pyramid=2 / b_adapt=1 / b_bias=0 / direct=3 / weightb=1 / open_gop=0 / weightp=2 / keyint=240 / keyint_min=23 / scenecut=40 / intra_refresh=0 / rc_lookahead=50 / rc=crf / mbtree=1 / crf=20.0 / qcomp=0.60 / qpmin=0 / qpmax=69 / qpstep=4 / ip_ratio=1.40 / aq=1:1.00
Default                                  : Yes
Forced                                   : No

Audio #1
ID                                       : 2
Format                                   : DTS
Format/Info                              : Digital Theater Systems
Mode                                     : 16
Format settings, Endianness              : Big
Codec ID                                 : A_DTS
Duration                                 : 1h 37mn
Bit rate mode                            : Constant
Bit rate                                 : 1 509 Kbps
Channel(s)                               : 6 channels
Channel positions                        : Front: L C R, Side: L R, LFE
Sampling rate                            : 48.0 KHz
Bit depth                                : 24 bits
Compression mode                         : Lossy
Stream size                              : 1.03 GiB (35%)
Language                                 : German
Default                                  : Yes
Forced                                   : No

Audio #2
ID                                       : 3
Format                                   : DTS
Format/Info                              : Digital Theater Systems
Mode                                     : 16
Format settings, Endianness              : Big
Codec ID                                 : A_DTS
Duration                                 : 1h 37mn
Bit rate mode                            : Constant
Bit rate                                 : 1 509 Kbps
Channel(s)                               : 6 channels
Channel positions                        : Front: L C R, Side: L R, LFE
Sampling rate                            : 48.0 KHz
Bit depth                                : 24 bits
Compression mode                         : Lossy
Stream size                              : 1.03 GiB (35%)
Language                                 : English
Default                                  : No
Forced                                   : No

Text
ID                                       : 4
Format                                   : UTF-8
Codec ID                                 : S_TEXT/UTF8
Codec ID/Info                            : UTF-8 Plain Text
Language                                 : German
Default                                  : Yes
Forced                                   : Yes


Download:
Share Online Share OnlineShare OnlineShare Online
 

Kommentare