DNS SERVER AENDERNum der staatlichen Zensur zu umgehen. Sollten wir von eurem Provider geseprrt werden, nutzt den TOR BROWSER oder ändert euren DNS SERVER.

Filmwünsche können bei uns im Forum abgegeben werden

Wir Speichern Nicht




 
 
 
Top Releases
Wolfsnaechte.2018.German.DL....
Wolfsnaechte.2018.German.DL....
Der.Nebelmann.2017.GERMAN.DL...
Der.Nebelmann.2017.GERMAN.72...
Der.Nebelmann.2017.GERMAN.10...
Der.Nebelmann.2017.GERMAN.DU...
Oceans.8.2018.German.AC3.5.1...
Oceans.8.2018.German.AC3.5.1...
Oceans.8.2018.German.AC3.5.1...
Anon.2018.German.AC3.DL.720p...

Cinedubs
Skyscraper.German.DL.AC3.Dub...
Skyscraper.German.DL.AC3.Dub...
Hotel.Artemis.2018.GERMAN.DL...
Hotel.Artemis.2018.GERMAN.DL...
The.First.Purge.2018.German....
The.First.Purge.2018.German....
The.First.Purge.2018.German....
Hotel.Transsilvanien.3.Ein.M...
Hotel.Transsilvanien.3.Ein.M...
Hotel.Transsilvanien.3.Ein.M...

Neuerscheinungen 2017-18
Rock.N.Roll.High.School.1979...
Ein.Vogel.auf.dem.Drahtseil....
Johnny.Guitar.1954.MULTi.COM...
X-Men.Der.letzte.Widerstand....
Mom.and.Dad.2017.GERMAN.DL.1...
Housesitter.1992.MULTi.COMPL...
X-Men.2.X2.2003.COMPLETE.UHD...
Neun.Monate.Nine.Months.1995...
X-Men.2000.COMPLETE.UHD.BLUR...
Mom.and.Dad.2017.MULTI.COMPL...

XXX
DaneJones.18.09.18.Baby.Nico...
EvilAngel.Anal.Darlings.2.XX...
DeepthroatFrenzy.18.09.19.Lu...
DarkX.18.09.20.Jane.Wilde.Ho...
CzechCasting.18.09.19.Nikola...
DevilsFilm.18.09.18.Sasha.He...
DigitalPlayground.18.09.17.C...
Do.Me.Dirty.Daddy.XXX.720p.W...
EroticaX.18.09.19.Alexis.Faw...
EvilAngel.Misha.In.Exile.XXX...
DeviceBondage.18.09.20.Rocky...
ExploitedCollegeGirls.18.09....
EvilAngel.POV.Sluts.Anal.Edi...
EuroTeenErotica.18.09.17.Nik...
Cum4K.18.09.18.Kenzie.Reeves...
Cucked.18.09.17.Natalia.Star...
CzechBitch.E59.Mature.Anal.W...
DorcelClub.18.09.17.Lilu.Moo...
EvilAngel.Misha.In.Exile.XXX...
DoeProjects.18.09.17.Jarushk...

3D
Sharknado.6.The.Last.One.3D....
Solo.A.Star.Wars.Story.3D.20...
Solo.A.Star.Wars.Story.3D.20...
Die.Biene.Maja.2.Die.Honigsp...
Avengers.Infinity.War.3D.201...
Avengers.Infinity.War.3D.201...
Rampage.Big.Meets.Bigger.3D....
Rampage.Big.Meets.Bigger.3D....
Rampage.Big.Meets.Bigger.3D....
Winter.Games.3D.2013.DUAL.CO...
Tomb.Raider.3D.2018.German.7...
Rampage.Big.Meets.Bigger.3D....
Rampage.Big.Meets.Bigger.3D....
Tomb.Raider.3D.2018.MULTi.CO...
Pacific.Rim.Uprising.3D.2018...

Old_Stuff
Buffy.The.Vampire.Slayer.199...
IMAX.Ride.Around.The.World.2...
Schimanski.-.Duisburg.Ruhror...
Akte.X.S02.German.DTS.DL.108...
How.I.Met.Your.Mother.S02.Ge...
Akte.X.S01.German.DTS.DL.108...
Den.Himmel.gibts.echt.DL.108...
Vikings.S02.German.DL.1080p....
Be.Kind.Rewind.Abgedreht.200...
Be.Kind.Rewind.Abgedreht.200...
Dracula.The.Dark.Lord.2012.G...
21.2008.German.DL.1080p.BluR...
Achtung.fertig.WK.Swissgerma...
The.Ouija.Exorcism.2015.MULT...
Meine.liebe.Rabenmutter.germ...

Filme
Ratter.Er.weiss.alles.ueber....
The.Punisher.2004.German.Dub...
Thrill.to.Kill.2013.German.D...
Tenebrae.UNCUT.GERMAN.1982.D...
Die.Lidl-Story.GERMAN.DOKU.7...
Terra.X.Extreme.der.Tiefsee....
Elvis.und.das.Maedchen.aus.W...
Confusion.-.Sommer.der.Ausge...
The.Flash.2014.S04.GERMAN.10...
The.Last.Man.On.Earth.S04.Ge...
The.Last.Man.On.Earth.S04.Ge...
The.Punisher.2004.German.Dub...
Terminal.2004.German.DL.1080...
Tetsuo.The.Bullet.Man.2009.G...
Teufel.in.Blau.1995.German.D...
Der.Mann.der.herrschen.wollt...
Neun.Monate.1995.German.DL.1...
Der.duenne.Mann.1934.German....
Drachenzaehmen.leicht.gemach...
Tekkonkinkreet.2006.German.D...
The.Boneyard.1991.German.720...
Gran.Torino.2008.German.AC3....
Die.durch.die.Hoelle.gehen.1...
The.Originals.S05.GERMAN.DUB...

 
 
Ratter.Er.weiss.alles.ueber.Dich.2015.German.DTS.DL.1080p.BluRay.x264-EXQUiSiTE

Jahr: 2015
Genre: Horror, Thriller
Sprache: Deutsch DTS | Englisch DTS
Laufzeit: 1h 20mn
Bitrate: 8 710 Kbps
Format: MKV
Größe: 4.89 GiB
Release:

Beschreibung:

Wir stehen ununterbrochen über unsere Handys, Laptops und das Internet miteinander in Verbindung. Doch während wir den Blick auf die Bildschirme richten, wer richtet ihn auf uns? Emma ist eine hübsche junge Studentin, die gerade aus dem Mittleren Westen nach New York gezogen ist und sich auf ihre Zeit allein in der Großstadt freut. Doch als sich ein Stalker in ihre Geräte hackt, zerstört er Emmas Illusionen über Privatsphäre, und sie muss entdecken, wie schnell man sich nicht mehr in Sicherheit fühlt. Ashley Benson ist der Star dieses bahnbrechenden Psychothrillers, der eine Welt voller Kameras zeigt, in der man stets beobachtet wird.



Complete name                            : exq-ratter-1080p.mkv
Format                                   : Matroska
Format version                           : Version 2
File size                                : 4.89 GiB
Duration                                 : 1h 20mn
Overall bit rate                         : 8 710 Kbps
Writing application                      : mkvmerge v4.1.1 ('Bouncin' Back') built on Jul  3 2010 22:54:08
Writing library                          : libebml v1.0.0 + libmatroska v1.0

Video
ID                                       : 1
Format                                   : AVC
Format/Info                              : Advanced Video Codec
Format profile                           : High@L4.1
Format settings, CABAC                   : Yes
Format settings, ReFrames                : 4 frames
Codec ID                                 : V_MPEG4/ISO/AVC
Duration                                 : 1h 20mn
Bit rate                                 : 5 519 Kbps
Width                                    : 1 920 pixels
Height                                   : 1 040 pixels
Display aspect ratio                     : 1.85:1
Frame rate mode                          : Constant
Frame rate                               : 23.976 fps
Color space                              : YUV
Chroma subsampling                       : 4:2:0
Bit depth                                : 8 bits
Scan type                                : Progressive
Bits/(Pixel*Frame)                       : 0.115
Stream size                              : 3.10 GiB (63%)
Writing library                          : x264 core 148 r2665 a01e339
Encoding settings                        : cabac=1 / ref=4 / deblock=1:-1:-1 / analyse=0x3:0x133 / me=umh / subme=7 / psy=1 / psy_rd=1.00:0.15 / mixed_ref=1 / me_range=16 / chroma_me=1 / trellis=1 / 8x8dct=1 / cqm=0 / deadzone=21,11 / fast_pskip=0 / chroma_qp_offset=-3 / threads=18 / lookahead_threads=3 / sliced_threads=0 / nr=0 / decimate=1 / interlaced=0 / bluray_compat=0 / constrained_intra=0 / bframes=3 / b_pyramid=2 / b_adapt=1 / b_bias=0 / direct=3 / weightb=1 / open_gop=0 / weightp=2 / keyint=240 / keyint_min=23 / scenecut=40 / intra_refresh=0 / rc_lookahead=50 / rc=crf / mbtree=1 / crf=20.0 / qcomp=0.60 / qpmin=10 / qpmax=51 / qpstep=4 / ip_ratio=1.40 / aq=1:1.00
Language                                 : English
Default                                  : Yes
Forced                                   : No

Audio #1
ID                                       : 2
Format                                   : DTS
Format/Info                              : Digital Theater Systems
Mode                                     : 16
Format settings, Endianness              : Big
Codec ID                                 : A_DTS
Duration                                 : 1h 20mn
Bit rate mode                            : Constant
Bit rate                                 : 1 509 Kbps
Channel(s)                               : 6 channels
Channel positions                        : Front: L C R, Side: L R, LFE
Sampling rate                            : 48.0 KHz
Bit depth                                : 24 bits
Compression mode                         : Lossy
Stream size                              : 867 MiB (17%)
Language                                 : German
Default                                  : Yes
Forced                                   : No

Audio #2
ID                                       : 3
Format                                   : DTS
Format/Info                              : Digital Theater Systems
Mode                                     : 16
Format settings, Endianness              : Big
Codec ID                                 : A_DTS
Duration                                 : 1h 20mn
Bit rate mode                            : Constant
Bit rate                                 : 1 509 Kbps
Channel(s)                               : 6 channels
Channel positions                        : Front: L C R, Side: L R, LFE
Sampling rate                            : 48.0 KHz
Bit depth                                : 24 bits
Compression mode                         : Lossy
Stream size                              : 867 MiB (17%)
Language                                 : English
Default                                  : No
Forced                                   : No


Download:
Share Online Share OnlineShare OnlineShare Online
 

Kommentare